Details for this torrent 

The Magicians Season 4. revittony
Type:
Video > TV shows
Files:
15
Size:
5.44 GiB (5838553838 Bytes)
Tag(s):
tt4254242
Uploaded:
2019-05-01 13:45:18 GMT
By:
revittony1 Trusted
Seeders:
17
Leechers:
9
Comments
0  

Info Hash:
7B4E8490CA2120648021382941C81DC164D995B9




(Problems with magnets links are fixed by upgrading your torrent client!)
 https://www.imdb.com/title/tt4254242



Format : MPEG-4 
Format profile : Base Media 
Codec ID : isom (isom/iso2/avc1/mp41) 
Overall bit rate : 1 354 kb/s 
Encoded date : UTC 2019-01-24 08:26:56 
Tagged date : UTC 2019-01-24 08:26:56 
Writing application : Lavf58.20.100 

Video 
ID : 1 
Format : AVC 
Format/Info : Advanced Video Codec 
Format profile : [email protected] 
Format settings : CABAC / 5 Ref Frames 
Format settings, CABAC : Yes 
Format settings, Reference frames : 5 frames 
Codec ID : avc1 
Codec ID/Info : Advanced Video Coding 
Duration : 45 min 14 s 
Bit rate : 1 100 kb/s 
Width : 720 pixels 
Height : 400 pixels 
Display aspect ratio : 16:9 
Frame rate mode : Constant 
Frame rate : 23.976 (24000/1001) FPS 
Color space : YUV 
Chroma subsampling : 4:2:0 
Bit depth : 8 bits 
Scan type : Progressive 
Bits/(Pixel*Frame) : 0.159 
Stream size : 354 MiB (81%) 
Writing library : x264 core 152 r2851M ba24899 


Audio 
ID : 2 
Format : AAC LC 
Format/Info : Advanced Audio Codec Low Complexity 
Codec ID : mp4a-40-2 
Duration : 45 min 15 s 
Duration_LastFrame : -11 ms 
Bit rate mode : Constant 
Bit rate : 256 kb/s 
Channel(s) : 2 channels 
Channel layout : L R 
Sampling rate : 48.0 kHz 
Frame rate : 46.875 FPS (1024 SPF) 
Compression mode : Lossy 
Stream size : 82.9 MiB (19%) 
Language : English 
Default : Yes 
Alternate group : 1 
Encoded date : UTC 2019-01-24 08:26:56 
Tagged date : UTC 2019-01-24 08:26:56