Details for this torrent 

South Park s13e02 (UNCENSORED) (16x9) (PSP, PS3, Xbox 360, PC)
Type:
Video > Handheld
Files:
1
Size:
178.53 MiB (187202734 Bytes)
Spoken language(s):
English
Uploaded:
2009-03-21 02:59:41 GMT
By:
HolyRoses VIP
Seeders:
3
Leechers:
0
Comments
0  

Info Hash:
A625F1FEF5394EF23D46B10641CB5D40551E0517




(Problems with magnets links are fixed by upgrading your torrent client!)
This is a new cap, the cap I used for iPod version had a couple framerate issues.  This seems pretty good.  I think my pc decided to do a disk defrag or something strange last time while in the process.


Source: da internets!!!

Poster (1280x720):  
http://bayimg.com/image/faoajaabh.jpg

Thumbs:  
http://bayimg.com/image/haoccaabh.jpg


Created with encode-handheld.pl v4.5

Will play on PSP, PS3, Xbox 360, PC, XBMC, Popcorn Hour.  

This release was tested on PSP CFW firmware 5.00 M33-4: 
http://www.dark-alex.org/

Notes:
* For proper playback of 720x480 material on the PSP your screen setting should be "Full Screen"

-HR


--------------------------- SPECS -----------------------------------

[libx264 @ 0x8a15f80]slice I:266   Avg QP:12.16  size: 63509
[libx264 @ 0x8a15f80]slice P:6109  Avg QP:12.69  size: 12099
[libx264 @ 0x8a15f80]slice B:24664 Avg QP:12.79  size:  3036
[libx264 @ 0x8a15f80]consecutive B-frames:  3.0%  3.0%  4.5%  7.5% 15.4% 31.3% 14.1%  3.0%  1.6%  1.3%  1.1%  1.3%  0.8%  0.6%  0.6%  1.2%  9.6%
[libx264 @ 0x8a15f80]mb I  I16..4: 23.6%  0.0% 76.4%
[libx264 @ 0x8a15f80]mb P  I16..4:  1.2%  0.0%  2.4%  P16..4: 38.9%  7.8%  9.6%  1.5%  1.6%    skip:36.9%
[libx264 @ 0x8a15f80]mb B  I16..4:  0.2%  0.0%  0.2%  B16..8: 22.4%  1.6%  3.3%  direct: 1.9%  skip:70.5%  L0:37.1% L1:54.3% BI: 8.6%
[libx264 @ 0x8a15f80]ref P L0  82.4% 11.0%  6.6%
[libx264 @ 0x8a15f80]ref B L0  84.6% 15.4%
[libx264 @ 0x8a15f80]SSIM Mean Y:0.9958751
[libx264 @ 0x8a15f80]kb/s:1023.8


General
Complete name                    : South Park s13e02.m4v
Format                           : MPEG-4
Format profile                   : Sony PSP
Codec ID                         : MSNV
File size                        : 179 MiB
Duration                         : 21mn 34s
Overall bit rate                 : 1 157 Kbps
Movie name                       : The Coon
Album                            : South Park, Season 13
Track name/Position              : 2
Track name/Total                 : 0
Performer                        : South Park
Genre                            : Animation
Encoded date                     : UTC 2009-03-19 03:00:00
Tagged date                      : UTC 2009-03-21 01:03:18
Writing application              : encode-handheld-4.5.pl
Comment                          : A HolyRoses release - http://piratebayproxy.live/user/HolyRoses/
tvsh                             : South Park
tven                             : s13e02
desc                             : The Coon (Cartman) takes his place as a lone vigilante who wipes out crime in South Park.
ldes                             : The Coon (Cartman) takes his place as a lone vigilante who wipes out crime in South Park.
tvsn                             : 13
tves                             : 2
purd                             : 2009-03-21T01:03:07Z
stik                             : 10
iTunEXTC                         : us-tv|TV-MA|600|

Video
Format                           : AVC
Format/Info                      : Advanced Video Codec
Format profile                   : [email protected]
Format settings, CABAC           : Yes
Format settings, ReFrames        : 3 frames
Codec ID                         : avc1
Codec ID/Info                    : Advanced Video Coding
Duration                         : 21mn 34s
Bit rate mode                    : Variable
Bit rate                         : 1 024 Kbps
Width                            : 720 pixels
Height                           : 480 pixels
Display aspect ratio             : 16/9
Frame rate mode                  : Constant
Frame rate                       : 23.976 fps
Standard                         : NTSC
Resolution                       : 24 bits
Colorimetry                      : 4:2:0
Scan type                        : Progressive
Bits/(Pixel*Frame)               : 0.124
Stream size                      : 158 MiB (89%)
Encoded date                     : UTC 1970-01-01 00:00:00
Tagged date                      : UTC 1970-01-01 00:00:00

Audio
Format                           : AAC
Format/Info                      : Advanced Audio Codec
Format version                   : Version 4
Format profile                   : LC
Format settings, SBR             : No
Codec ID                         : 40
Duration                         : 21mn 34s
Bit rate mode                    : Variable
Bit rate                         : 128 Kbps
Channel(s)                       : 2 channels
Channel positions                : L R
Sampling rate                    : 48.0 KHz
Resolution                       : 16 bits
Stream size                      : 19.7 MiB (11%)
Encoded date                     : UTC 1970-01-01 00:00:00
Tagged date                      : UTC 1970-01-01 00:00:00