Details for this torrent 

Kobra 2009 Program 04 - Leksaker
Type:
Video > TV shows
Files:
1
Size:
511.97 MiB (536839756 Bytes)
Uploaded:
2009-05-07 21:50:34 GMT
By:
Tajgoren
Seeders:
1
Leechers:
0
Comments
0  

Info Hash:
1084C23435C3116C4BB3AC86DCD1CCEE033056B9




(Problems with magnets links are fixed by upgrading your torrent client!)
Kobra om leksaker

Om leksaker. Kan man forma en människa med hjälp av leksaker? I veckans program träffar vi dataspelutvecklaren Luc Bernard som gör ett spel om Förintelsen och Mike Mills som gör nallebjörnskonst. Arkitekten Gert Wingårdh, illusionisten Joe Labero och klädskaparen Gunilla Pontén berättar om vilka leksaker som format dem.


Format                           : AVI
Format/Info                      : Audio Video Interleave
File size                        : 512 MiB
Duration                         : 28mn 50s
Overall bit rate                 : 2 482 Kbps
Writing application              : VirtualDubMod 1.5.10.2 (build 2540/release)
Writing library                  : VirtualDub build 29963/release

Video
Format                           : MPEG-4 Visual
Format profile                   : Streaming [email protected]
Format settings, BVOP            : Yes
Format settings, QPel            : No
Format settings, GMC             : No warppoints
Format settings, Matrix          : Default
Muxing mode                      : Packed bitstream
Codec ID                         : XVID
Codec ID/Hint                    : XviD
Duration                         : 28mn 50s
Bit rate                         : 2 216 Kbps
Width                            : 864 pixels
Height                           : 480 pixels
Display aspect ratio             : 16/9
Frame rate                       : 25.000 fps
Resolution                       : 24 bits
Colorimetry                      : 4:2:0
Scan type                        : Progressive
Bits/(Pixel*Frame)               : 0.214
Stream size                      : 457 MiB (89%)
Writing library                  : XviD 1.2.1 (UTC 2008-12-04)

Audio
Format                           : MPEG Audio
Format version                   : Version 1
Format profile                   : Layer 3
Codec ID                         : 55
Codec ID/Hint                    : MP3
Duration                         : 28mn 50s
Bit rate mode                    : Constant
Bit rate                         : 256 Kbps
Channel(s)                       : 2 channels
Sampling rate                    : 48.0 KHz
Resolution                       : 16 bits
Stream size                      : 52.8 MiB (10%)
Alignment                        : Split accross interleaves
Interleave, duration             : 40 ms (1.00 video frame)
Interleave, preload duration     : 500 ms