Details for this torrent 

Domino DVDRip 2005 [H.264-MP4-AAC] - Mindbreaker
Type:
Video > Movies
Files:
8
Size:
1.85 GiB (1987423296 Bytes)
Tag(s):
MINDBREAKER
Uploaded:
2009-05-07 23:59:47 GMT
By:
mindbreaker3103
Seeders:
0
Leechers:
2
Comments
0  

Info Hash:
DFD8E8017BEF4EFB74785346FFC20EB77272769C




(Problems with magnets links are fixed by upgrading your torrent client!)
Tagline: I Am a Bounty Hunter
Plot: A recounting of Domino Harvey's life story. The daughter of actor Laurence Harvey turned away from her career as a Ford model to become a bounty hunter.
Total Size : 1.85 GB

General
Complete name : Domino DVDRip 2005 [H.264-MP4-AAC] - Mindbreaker.mp4
Format : H.264/AAC/MP4 - Anamophic
Source : DVD (retail)
File size : 1.85 GiB
Duration : 2h 2mn
Overall bit rate : 2 163 Kbps


Video
ID : 1
Format : AVC
Format/Info : Advanced Video Codec
Format profile : M[email protected]
Duration : 2h 2mn
Bit rate : 2 000 Kbps
Width : 720 pixels
Height : 426 pixels
Display aspect ratio : 2.403
Frame rate : 25.000 fps
Bits/(Pixel*Frame) : 0.261
Stream size : 1.71 GiB (92%)
Writing library : x264 core 65

Audio
ID : 2
Format : AAC
Format/Info : Advanced Audio Codec
Format profile : LC
Duration : 2h 2mn
Bit rate : 160 Kbps
Channel(s) : 2 channels
Sampling rate : 48.0 KHz
Stream size : 140 MiB (7%)
Language : English

Subtitle
Format : SubRip
Language : Dutch
Source : DVD
Comment : UniCode