Details for this torrent 

8 Mile (2002) DVDRip XviD-DUBBY
Type:
Video > Movies
Files:
2
Size:
704.63 MiB (738859158 Bytes)
Info:
IMDB
Tag(s):
DUBBY
Uploaded:
2010-05-02 05:47:01 GMT
By:
Emery2010 Trusted
Seeders:
0
Leechers:
1
Comments
0  

Info Hash:
C861FD0AFAACA0CEA80BFEA23F4877CD235CE953




(Problems with magnets links are fixed by upgrading your torrent client!)
8 Mile (2002) DVDRip XviD-DUBBY
 
http://www.imdb.com/title/tt0298203/

Genre: Drama | Music
 
Plot: A young rapper, struggling with every aspect of his life,
wants to make the most of what could be his final opportunity but
his problems around gives him doubts...


Video
ID                               : 0
Format                           : MPEG-4 Visual
Format profile                   : Advanced [email protected]
Format settings, BVOP            : Yes
Format settings, QPel            : No
Format settings, GMC             : No warppoints
Format settings, Matrix          : Default (H.263)
Muxing mode                      : Packed bitstream
Codec ID                         : XVID
Codec ID/Hint                    : XviD
Duration                         : 1h 50mn
Bit rate                         : 755 Kbps
Width                            : 640 pixels
Height                           : 272 pixels
Display aspect ratio             : 2.35:1
Frame rate                       : 23.976 fps
Resolution                       : 8 bits
Colorimetry                      : 4:2:0
Scan type                        : Progressive
Bits/(Pixel*Frame)               : 0.181
Stream size                      : 596 MiB (85%)
Writing library                  : XviD 1.2.1 (UTC 2008-12-04)

Audio
ID                               : 1
Format                           : MPEG Audio
Format version                   : Version 1
Format profile                   : Layer 3
Mode                             : Joint stereo
Format_Settings_ModeExtension    : MS Stereo
Codec ID                         : 55
Codec ID/Hint                    : MP3
Duration                         : 1h 50mn
Bit rate mode                    : Constant
Bit rate                         : 128 Kbps
Channel(s)                       : 2 channels
Sampling rate                    : 48.0 KHz
Stream size                      : 101 MiB (14%)
Alignment                        : Aligned on interleaves
Interleave, duration             : 42 ms (1.00 video frame)
Interleave, preload duration     : 504 ms