Details for this torrent 

Shooter.2007.SWESUB.DVDRip.XviD-Zen_Bud
Type:
Video > Movies
Files:
1
Size:
1.37 GiB (1471897832 Bytes)
Info:
IMDB
Spoken language(s):
English
Texted language(s):
Swedish
Tag(s):
Antoine Fuqua Shooter SWESUB Action Crime Mystery Thriller
Uploaded:
2010-05-02 08:35:01 GMT
By:
Zen_Bud Trusted
Seeders:
0
Leechers:
1
Comments
3  

Info Hash:
347E9A6B38BC1A1E87FBB79A1B010DF907F8E6FA




(Problems with magnets links are fixed by upgrading your torrent client!)
General
Complete name                    : Shooter.2007.SWESUB.DVDRip.XviD-Zen_Bud
Format                           : AVI
Format/Info                      : Audio Video Interleave
File size                        : 1.37 GiB
Duration                         : 2h 5mn
Overall bit rate                 : 1 561 Kbps

Video
ID                               : 0
Codec ID/Hint                    : XviD
Duration                         : 2h 5mn
Bit rate                         : 1 102 Kbps
Width                            : 720 pixels
Height                           : 564 pixels
Display aspect ratio             : 16:9
Resolution                       : 8 bits
Colorimetry                      : 4:2:0
Bits/(Pixel*Frame)               : 0.109
Stream size                      : 991 MiB (71%)
Writing library                  : XviD 1.1.2 (UTC 2006-11-01)

Audio
ID                               : 1
Format                           : AC-3
Duration                         : 2h 5mn
Bit rate mode                    : Constant
Bit rate                         : 448 Kbps
Channel(s)                       : 6 channels
Channel positions                : Front: L C R, Side: L R, LFE
Sampling rate                    : 48.0 KHz
Stream size                      : 403 MiB (29%)



Comments

Hard coded Swe_Sub

And yes IMBd is in the top... look and find ;)

DonĀ“t "Hit and Run"

Sharing is caring :)

Zen_Bud ................................Enjoy :)
Tackar man kan ju se denna en g?ng till!.
Tackar!