Details for this torrent 

Tooth.Fairy.2010.1080p.BluRay.DTS.x264-LTT
Type:
Video > HD - Movies
Files:
2
Size:
5.47 GiB (5872101372 Bytes)
Info:
IMDB
Spoken language(s):
English
Texted language(s):
English
Uploaded:
2010-05-02 11:13:19 GMT
By:
Ltt_01 VIP
Seeders:
0
Leechers:
1
Comments
1  

Info Hash:
A546DDA400453AF6FDBB5D613F3A0AD52D972769




(Problems with magnets links are fixed by upgrading your torrent client!)
Tooth.Fairy.2010.1080p.BluRay.DTS.mkv
*************************************

TiTLE......  Tooth Fairy
YEAR.......  2010
GENRE......  Comedy | Family | Fantasy 
iMDB RATE..  User Rating: 4.6/10 (3,719 votes)
iMDB URL...  http://www.imdb.com/title/tt0808510/
*************************************************

Video
Duration                         : 1h 41mn
Overall bit rate                 : 7 715 Kbps
Width                            : 1 920 pixels
Height                           : 1 032 pixels
Display aspect ratio             : 1.860
Frame rate                       : 23.976 fps
Stream size                      : 4.29 GiB (78%)

Audio
Format                           : DTS
Format/Info                      : Digital Theater Systems
Bit rate                         : 1 510 Kbps
Channel(s)                       : 6 channels
Channel positions                : Front: L C R, Surround: L R, LFE
Sampling rate                    : 48.0 KHz
Resolution                       : 24 bits
Stream size                      : 1.07 GiB (20%)
Language                         : English

Subtitles: English, Brazilian
*****************************


Comments

thx