Details for this torrent 

The.Curious.Case.Of.Benjamin.Button.2008.DVDRip.XviD[ENG]-NWO
Type:
Video > Movies
Files:
3
Size:
699.74 MiB (733730098 Bytes)
Spoken language(s):
English
Texted language(s):
English
Uploaded:
2010-05-02 15:58:34 GMT
By:
Anonymous
Seeders:
0
Leechers:
1
Comments
3  

Info Hash:
061BC0866608A1210B347AD559C16BF8A284F24E




(Problems with magnets links are fixed by upgrading your torrent client!)
Format : AVI
Format/Info : Audio Video Interleave
File size : 699 MiB
Duration : 2h 46mn
Overall bit rate : 589 Kbps
Writing application : VirtualDubMod 1.5.10.2 (build 2540/release)
Writing library : VirtualDubMod build 2540/release

Video
ID : 0
Format : MPEG-4 Visual
Format profile : Advanced [email protected]
Format settings, BVOP : Yes
Format settings, QPel : No
Format settings, GMC : No warppoints
Format settings, Matrix : Default (H.263)
Codec ID : DIVX
Codec ID/Info : Project Mayo
Codec ID/Hint : DivX 4
Duration : 2h 46mn
Bit rate : 468 Kbps
Width : 656 pixels
Height : 272 pixels
Display aspect ratio : 2.40:1
Frame rate : 23.976 fps
Resolution : 8 bits
Colorimetry : 4:2:0
Scan type : Progressive
Bits/(Pixel*Frame) : 0.109
Stream size : 556 MiB (80%)
Writing library : XviD 1.2.1 (UTC 2008-12-04)

Audio
ID : 1
Format : MPEG Audio
Format version : Version 1
Format profile : Layer 3
Format_Settings_Mode : Joint stereo
Format_Settings_ModeExtension : MS Stereo
Codec ID : 55
Codec ID/Hint : MP3
Duration : 2h 46mn
Bit rate mode : Variable
Bit rate : 108 Kbps
Channel(s) : 2 channels
Sampling rate : 44.1 KHz
Stream size : 129 MiB (18%)
Alignment : Aligned on interleaves
Interleave, duration : 26 ms (0.63 video frame)
Interleave, preload duration : 176 ms
Writing library : LAME3.90.
Encoding settings : -m j -V 4 -q 2 -lowpass 16 --abr 108

Comments

where can i find the subtitule in spanish?
seeds pls....
thanks very much
good quality V9.5/A10