Details for this torrent 

William Wyler - The Collector (1965)
Type:
Video > Movies
Files:
5
Size:
1.32 GiB (1413954947 Bytes)
Info:
IMDB
Spoken language(s):
English
Texted language(s):
English, French, Spanish, Portugese
Uploaded:
2010-05-02 16:02:10 GMT
By:
mfccorrea VIP
Seeders:
4
Leechers:
1
Comments
3  

Info Hash:
9452FBE307E2691C7B0D30B4DCF9F7E90D11A567




(Problems with magnets links are fixed by upgrading your torrent client!)
John Fowles's novel The Collector was written in the form of a dual diary, one kept by a kidnapper, the other by his victim. The film is told almost exclusively from the point of view of the former, a nerdish British bank clerk named Freddy Clegg (Terence Stamp). A neurotic recluse whose only pleasure is butterfly collecting, Clegg wins $200,000 in the British Football Pool. He purchases a huge country estate, fixes up its cellar with all the comforts of home, then kidnaps Miranda (Samantha Eggar), an art student whom he has worshipped from afar. The demented Clegg doesn't want ransom, nor does he want to rape the girl: he simply wants to "collect" her. She isn't keen on this, and tries several times to escape. After several weeks, Clegg and Miranda grow increasingly fond of one another, and Clegg promises to let her go. When time comes for the actual release, however, Clegg decides that Miranda hasn't completely come around to his way of thinking and changes his mind, leading to a further series of unfortunate events. 

   General
      Complete name : The Collector.avi
      Format : AVI
      Format/Info : Audio Video Interleave
      File size : 1.32 GiB
      Duration : 1h 59mn
      Overall bit rate : 1 581 Kbps
      Writing application : VirtualDubMod 1.5.10.2 (build 2540/release)
      Writing library : VirtualDub build 32593/release
   Video #0
      ID : 0
      Format : MPEG-4 Visual
      Format profile : [email protected]
      Format settings, BVOP : Yes
      Format settings, QPel : No
      Format settings, GMC : No warppoints
      Format settings, Matrix : Custom
      Codec ID : XVID
      Codec ID/Hint : XviD
      Duration : 1h 59mn
      Bit rate : 1 444 Kbps
      Width : 640 pixels
      Height : 352 pixels
      Display aspect ratio : 16:9
      Frame rate : 23.976 fps
      Resolution : 24 bits
      Colorimetry : 4:2:0
      Scan type : Progressive
      Bits/(Pixel*Frame) : 0.267
      Stream size : 1.20 GiB (91%)
      Writing library : XviD 1.2.0.dev47 (UTC 2006-11-01)
   Audio #1
      ID : 1
      Format : MPEG Audio
      Format version : Version 1
      Format profile : Layer 3
      Codec ID : 55
      Codec ID/Hint : MP3
      Duration : 1h 59mn
      Bit rate mode : Constant
      Bit rate : 128 Kbps
      Channel(s) : 2 channels
      Sampling rate : 44.1 KHz
      Resolution : 16 bits
      Video delay : 6s 715ms
      Stream size : 109 MiB (8%)
      Alignment : Split accross interleaves
      Interleave, duration : 42 ms (1.00 video frame)
      Interleave, preload duration : 500 ms
      Writing library : LAME3.92 
      Encoding settings : -m s -V 4 -q 0 -lowpass 13.8 -b 128
 
http://www.imdb.com/title/tt0059043/

English audio; English, French, Spanish and Portuguese subtitles

William Wyler - The Collector (1965) 

Comments

thank you!
-389 ms
Thanks!!!