Details for this torrent 

Roaring Glory Warbirds P-51 MUSTANG^D^
Type:
Video > Movies
Files:
51
Size:
698.38 MiB (732302360 Bytes)
Uploaded:
2010-05-02 16:33:35 GMT
By:
upsdave Trusted
Seeders:
0
Leechers:
2
Comments
0  

Info Hash:
4C08174C1DA75EA6184FE8EA389D3A791D53B75E




(Problems with magnets links are fixed by upgrading your torrent client!)
Every young flier's dream was to slip into the sleek Mustang to experience its incredible power and handling, built to challenge the Luftwaffe's finest while protecting America's bomber formations.  Now you can get all the thrills and adventure in your own home theater.  Pilot Jeff Ethell checks out the special cockpit features before you climb in and start-up your Rolls Royce Merlin engine.  The roar and crackle of the mighty 1500 horsepower engine surrounds you as you shove the throttle forward for takeoff.

Format                          : AVI
Format/Info                      : Audio Video Interleave
File size                        : 698 MiB
Duration                        : 44mn 20s
Overall bit rate                : 2 202 Kbps
Writing application              : VirtualDubMod 1.5.4.1 (build 2178/release)
Writing library                  : VirtualDubMod build 2178/release

Video
ID                              : 0
Format                          : MPEG-4 Visual
Format profile                  : Advanced [email protected]
Format settings, BVOP            : Yes
Format settings, QPel            : No
Format settings, GMC            : No warppoints
Format settings, Matrix          : Custom
Codec ID                        : XVID
Codec ID/Hint                    : XviD
Duration                        : 44mn 20s
Bit rate                        : 2 076 Kbps
Width                            : 640 pixels
Height                          : 480 pixels
Display aspect ratio            : 4:3
Frame rate                      : 29.970 fps
Resolution                      : 8 bits
Colorimetry                      : 4:2:0
Scan type                        : Progressive
Bits/(Pixel*Frame)              : 0.225
Stream size                      : 658 MiB (94%)
Writing library                  : XviD 1.2.0.dev47 (UTC 2006-11-01)

Audio
ID                              : 1
Format                          : MPEG Audio
Format version                  : Version 1
Format profile                  : Layer 3
Mode                            : Joint stereo
Format_Settings_ModeExtension    : MS Stereo
Codec ID                        : 55
Codec ID/Hint                    : MP3
Duration                        : 44mn 16s
Bit rate mode                    : Variable
Bit rate                        : 113 Kbps
Nominal bit rate                : 128 Kbps
Channel(s)                      : 2 channels
Sampling rate                    : 48.0 KHz
Stream size                      : 35.8 MiB (5%)
Alignment                        : Aligned on interleaves
Interleave, duration            : 24 ms (0.72 video frame)
Interleave, preload duration    : 560 ms
Writing library                  : LAME3.97
Encoding settings                : -m j -V 4 -q 2 -lowpass 17 --abr 128