Details for this torrent 

Valentines Day-AC3-5,1-DVDRip[Eng]2010 2Lions-Team
Type:
Video > Movies
Files:
11
Size:
1.36 GiB (1465413038 Bytes)
Info:
IMDB
Spoken language(s):
English
Texted language(s):
Dutch
Tag(s):
2Lions
Uploaded:
2010-05-02 19:43:38 GMT
By:
FatFreddy31 Trusted
Seeders:
1
Leechers:
0
Comments
0  

Info Hash:
7B7A4395AE510E4E4DECCBAE5485C65F776B244E




(Problems with magnets links are fixed by upgrading your torrent client!)
Intertwining couples and singles in Los Angeles break-up and make-up based on the pressures and expectations of Valentine's Day.

Subtitles (srt) : Dutch, English.
  
http://www.imdb.com/title/tt0817230/

Cover included.

Verschillende verhalen worden verteld ten tijde van Valentijnsdag. De personen zijn allen afkomstig uit Los Angeles en kampen één voor één met liefdesproblemen.

Ondertitels (srt) : Nederlands, Engels.
  
http://www.moviemeter.nl/film/60126

Hoesje bijgevoegd.

General
Complete name                    : Valentines Day-AC3-5,1-DVDRip[Eng]2010.avi
Format                           : AVI
Format/Info                      : Audio Video Interleave
File size                        : 1.36 GiB
Duration                         : 2h 4mn
Overall bit rate                 : 1 567 Kbps
Writing application              : VirtualDubMod 1.5.4.1 (build 2178/release)
Writing library                  : VirtualDubMod build 2178/release

Video
ID                               : 0
Format                           : MPEG-4 Visual
Format profile                   : [email protected]
Format settings, BVOP            : No
Format settings, QPel            : No
Format settings, GMC             : No warppoints
Format settings, Matrix          : Default (H.263)
Codec ID                         : XVID
Codec ID/Hint                    : XviD
Duration                         : 2h 4mn
Bit rate                         : 1 174 Kbps
Width                            : 720 pixels
Height                           : 400 pixels
Display aspect ratio             : 16:9
Frame rate                       : 23.976 fps
Resolution                       : 24 bits
Colorimetry                      : 4:2:0
Scan type                        : Progressive
Bits/(Pixel*Frame)               : 0.170
Stream size                      : 1.02 GiB (75%)
Writing library                  : XviD 1.1.2 (UTC 2006-11-01)

Audio
ID                               : 1
Format                           : AC-3
Format/Info                      : Audio Coding 3
Codec ID                         : 2000
Duration                         : 2h 4mn
Bit rate mode                    : Constant
Bit rate                         : 384 Kbps
Channel(s)                       : 6 channels
Channel positions                : Front: L C R, Surround: L R, LFE
Sampling rate                    : 48.0 KHz
Stream size                      : 342 MiB (25%)
Alignment                        : Split accross interleaves
Interleave, duration             : 42 ms (1.00 video frame)
Interleave, preload duration     : 500 ms

Brought to you by 
2Lions Team

meer zien??
Kom dan eens kijken op ons forum 
                     
http://www.2lions.ons-forum.nl

2Lions the site to be for all your Dutch MOVIES and more

******************************************

DON T HIT AND RUN Niet gelijk afhaken als de FILM binnen is blijf seeden. 

Don`t quit after you finished the download, but keep seeding

There are fake torrents from uploaders who use our team name.
Those are not ours, or members from our team.
We 2Lions-Team are not responsible for the fake posts on our name

Wij 2Lions-Team zijn niet verantwoordelijk voor die zieke FAKE posten die op onze naam worden gedaan

Please check our site !!!

to the fakers , get a life !!!