Details for this torrent 

Iron Man 2 CAM XViD - IMAGiNE
Type:
Video > Movies
Files:
6
Size:
1.38 GiB (1484414715 Bytes)
Info:
IMDB
Spoken language(s):
English
Tag(s):
Iron Man 2
Uploaded:
2010-05-03 00:19:08 GMT
By:
TvTeam VIP
Seeders:
2
Leechers:
0
Comments
66  

Info Hash:
C22D7FD9A2A0A9BBEDB3453A0040E97AB094E925




(Problems with magnets links are fixed by upgrading your torrent client!)
. 
 
http://www.torrentday.com   -    Your Key To The Scene.

Now TvTeam with [No-RAR] Releases.

(((((((((((((= Enjoy No RAR releases =))))))))))))))))))))

...................................NFO:....................................




Iron Man 2 CAM XViD - IMAGiNE


Ripper ...........: IMAGiNE                                        IMDB Rating.......:7.9/10                             
Video Codec.......: XVID                                         Release Date......:02/05/10
Audio Codec.......:MP3                                           Theatre Date......:07/05/10
Audio Bitrate.....:128                                              Runtime.......:1h 52mn
Subtitles.........:NIL                                                 Language..........:ENGLISH
Resolution...... 720 x 288                                      IMDb URL..........:http://www.imdb.com/title/tt1228705/


[color=yellow]DETAILS:[/color]

Video
ID                               : 0
Format                           : MPEG-4 Visual
Format profile                   : Advanced [email protected]
Format settings, BVOP            : Yes
Format settings, QPel            : No
Format settings, GMC             : No warppoints
Format settings, Matrix          : Default (MPEG)
Muxing mode                      : Packed bitstream
Codec ID                         : XVID
Codec ID/Hint                    : XviD
Duration                         : 1h 52mn
Bit rate                         : 1 608 Kbps
Width                            : 720 pixels
Height                           : 288 pixels
Display aspect ratio             : 2.500
Frame rate                       : 25.000 fps
Resolution                       : 24 bits
Colorimetry                      : 4:2:0
Scan type                        : Progressive
Bits/(Pixel*Frame)               : 0.310
Stream size                      : 1.26 GiB (100%)
Writing library                  : XviD 1.2.1 (UTC 2008-12-04)


Audio
Format                           : MPEG Audio
Format version                   : Version 1
Format profile                   : Layer 3
Mode                             : Joint stereo
Format_Settings_ModeExtension    : MS Stereo
Duration                         : 1h 52mn
Bit rate mode                    : Constant
Bit rate                         : 128 Kbps
Channel(s)                       : 2 channels
Sampling rate                    : 48.0 KHz
Stream size                      : 103 MiB (100%) 



[color=yellow]NOTES:[/color]

IMAGiNE bringing you another release.....Iron Man 2

Sources used....russian TS and the audio off the no grp DVDR.....many thanks to both.
Audio wise for cam is half decent ....better then alot of cam audios out there so ;-)
The video needed some TLC,too colourful,rgb colours off,dark etc.....but we fixed what we could.
As for the audio we ran it through a few filters nothing major but tried to give it a bit more life ....
Now regarding some sweet direct audio.....if you can it shall be here for next weekend,your call  
if you can wait ;-)

Enjoy

Comments

Quality Rating:
A=3
V=5

Cam Rating:
A=5
V=9

Good enough for a cam.
Leechers whats the crack. Estimating time of arrival is taking the bic. but tv team looking forward to it..:-) Thumbs up..
Shit copy waste of a download.
Common upload good quiltys..
A-3 V-4
Is this the same shit as the 600mb one from raymondhome???
200 fucking seeders? C'mon guys!!!! Stop leeching like bitches
thanks for the download
v=free
a=free
seeed plzzzz
has amazing quality and sound. very watchable, and im seeding right now. If you want to make sure, download only the sample (10mb)
movie was decent not alot of action just like the 1st one
v:7
A:6

very watchable
Hi guys..3722 seeds, but speed is 0 for two days. Anything wrong?
Anyone ever find good english subtitles? i'm deaf and have not been able to find any that are translated well and synch right.
Video way better than Xclusive release. Audio about the same, if not a little worse.
V-7
A-5
its ok downloaded abit slow watched it at supremem0vies.info thanks
How Long will we have to wait to get dvdrip on this movie its been longer for this one and your comming out with ts xvid on other movies hurry up i am waiting for the top movies of 2010.
Quality is terrible DONT DOWNLOAD + baby crying in backround
thanks