Details for this torrent 

The New Daughter DVDRiP XViD - IMAGiNE
Type:
Video > Movies
Files:
7
Size:
756.51 MiB (793253580 Bytes)
Info:
IMDB
Tag(s):
The New Daughter dvdrip xvid avi no rar IMAGiNE Kevin Costner Ivana Baquero Samantha Mathis Noah Taylor
Uploaded:
2010-05-03 07:25:24 GMT
By:
raymondhome Trusted
Seeders:
0
Leechers:
1
Comments
5  

Info Hash:
58B091ED522302C5E2F7CA25A25AC69B20FEBEE0




(Problems with magnets links are fixed by upgrading your torrent client!)
Love for All and Sharing is the first step to solving all the problems of humanity.

Websites I want to share.

    
http://www.shareintl.org/

    
http://www.lightmiddleway.com


Thank you very much

No credit for me...credit to EVERYONE for sharing
 
http://piratebayproxy.live/user/raymondhome/

PLOT
A single father moves his two children to rural South Carolina, only to watch his daughter exhibit increasingly strange behavior.

Runtime.......:1h 47mn
Video
ID                               : 0
Format                           : MPEG-4 Visual
Format profile                   : [email protected]
Format settings, BVOP            : No
Format settings, QPel            : No
Format settings, GMC             : No warppoints
Format settings, Matrix          : Default (H.263)
Codec ID                         : XVID
Codec ID/Hint                    : XviD
Duration                         : 1h 47mn
Bit rate                         : 833 Kbps
Width                            : 672 pixels
Height                           : 288 pixels
Display aspect ratio             : 2.35
Frame rate                       : 23.976 fps
Resolution                       : 24 bits
Colorimetry                      : 4:2:0
Scan type                        : Progressive
Bits/(Pixel*Frame)               : 0.179
Stream size                      : 643 MiB (86%)
Writing library                  : XviD 1.2.0.dev47 (UTC 2006-11-01)
Audio
ID                               : 1
Format                           : MPEG Audio
Format version                   : Version 1
Format profile                   : Layer 3
Codec ID                         : 55
Codec ID/Hint                    : MP3
Duration                         : 1h 47mn
Bit rate mode                    : Constant
Bit rate                         : 128 Kbps
Channel(s)                       : 2 channels
Sampling rate                    : 48.0 KHz
Resolution                       : 16 bits
Stream size                      : 98.8 MiB (13%)
Alignment                        : Aligned on interleaves
Interleave, duration             : 42 ms (1.00 video frame)
Interleave, preload duration     : 504 ms
Writing library                  : LAME3.97 
Encoding settings                : -m j -V 4 -q 2 -lowpass 17 -b 128

IMAGiNE NOTES
Here we go with this dvdrip...got to be honest and say we was given this so thanks to a special friend ;-)
Checked around and couldn't see it out anywhere so we've just packed it up and what not and released it to share with everyone....

credit IMAGiNE & to all the people who made it possible for me to share this with everyone...especially EVERYONE involve in the production of the movie...IF YOU LIKE IT...BUY IT :)

UPLOAD DEDICATED TO redchaos2354, Motley Crue, jdpennington, BADASS, W1ck3d1nt3ntz, ceo54, DaRkReAlM, ghostman, karakurachow, megaplay, Emery1337x, SaM, geordieboy1979, timamirrockdude, Noir, Shedevil, bone111, JorgeMontana, BlueLady, xxxUniversalAbsurdityxxx, mc68, TheFalcon007, pardeep333, X, DR67, DiNGiE, xclusive666, pro2kon, EMUworld & many, many more & to all the awesome people who are sharing (ALL THE UPLOADERS, THE RIPPERS, THE SCENE GROUPS, ETC, THE WHOLE P2P COMMUNITY)***wish i could list everyone***Thank you very much everyone & i mean EVERYONE even the CRITICIZERS :)

*****help what we can with others in need...the world is ONE big family*****

Comments

DON'T THANK ME...HELP SOMEONE IN RETURN :)
A=9
V=9
M=5
all good thanks
Good movie, BUT WORST ENDING EVER IT JUST PISSED ME OFF @@@@!!!