Details for this torrent 

BBC.Earth.The.Power.Of.The.Planet.1of5.Volcanoes.2007.BluRay
Type:
Video > HD - TV shows
Files:
2
Size:
1.04 GiB (1119154931 Bytes)
Spoken language(s):
English
Tag(s):
BBC Earth The Power The Planet 1of5 Volcanoes 2007 BluRay
Uploaded:
2010-05-03 13:38:23 GMT
By:
DjAligator14 Trusted
Seeders:
0
Leechers:
1
Comments
0  

Info Hash:
01172EF98B6960E8E60E4DAA9696F7A56D41773E




(Problems with magnets links are fixed by upgrading your torrent client!)
General
Complete name                    : F:uploadBBC.Earth.The.Power.Of.The.Planet.1of5.Volcanoes.2007.BluRay.BRRip.AC3.XViD.RoSubbed-playOFFBBC.Earth.The.Power.Of.The.Planet.1of5.Volcanoes.2007.BluRay.BRRip.AC3.XViD.RoSubbed-playOFF.avi
Format                           : Matroska
File size                        : 1.04 GiB
Duration                         : 59mn 16s
Overall bit rate                 : 2 517 Kbps
Encoded date                     : UTC 2010-01-31 21:13:35
Writing application              : mkvmerge v3.1.0 ('Happy up here') built on Jan 19 2010 12:09:24
Writing library                  : libebml v0.7.9 + libmatroska v0.8.1

Video
ID                               : 1
Format                           : MPEG-4 Visual
Format profile                   : Advanced [email protected]
Format settings, BVOP            : Yes
Format settings, QPel            : No
Format settings, GMC             : No warppoints
Format settings, Matrix          : Custom
Codec ID                         : XVID
Codec ID/Hint                    : XviD
Duration                         : 59mn 13s
Bit rate                         : 1 827 Kbps
Width                            : 720 pixels
Height                           : 400 pixels
Display aspect ratio             : 16:9
Frame rate                       : 23.976 fps
Resolution                       : 8 bits
Colorimetry                      : 4:2:0
Scan type                        : Progressive
Bits/(Pixel*Frame)               : 0.265
Stream size                      : 774 MiB (73%)
Writing library                  : XviD 1.2.0.dev47 (UTC 2006-11-01)

Audio
ID                               : 2
Format                           : AC-3
Format/Info                      : Audio Coding 3
Codec ID                         : A_AC3
Duration                         : 59mn 16s
Bit rate mode                    : Constant
Bit rate                         : 640 Kbps
Channel(s)                       : 6 channels
Channel positions                : Front: L C R, Surround: L R, LFE
Sampling rate                    : 48.0 KHz
Stream size                      : 271 MiB (25%)
Language                         : English

Text
ID                               : 3
Format                           : UTF-8
Codec ID                         : S_TEXT/UTF8
Codec ID/Info                    : UTF-8 Plain Text
Language                         : Romanian