Details for this torrent 

SAS Red Notice 2021 720p WEB h264-iNTENSO
Type:
Video > HD - Movies
Files:
4
Size:
3.85 GiB (4134837040 Bytes)
Uploaded:
2024-07-11 04:05:51 GMT
By:
TvTeam VIP
Seeders:
4
Leechers:
2
Comments
0  

Info Hash:
1C69548DC33BA9F0254985DF73AB07D3DDCD1284




(Problems with magnets links are fixed by upgrading your torrent client!)
~~~~~~~~~~~~~~~~~~~~~~~~~~~~~~~~~~~~~~~~~~~~~~~~~~~~~~~~~~~~~~~~~~~~~~~~~~~~~~~~~~~

Torrent downloaded from  https://www.torrenting.com

~~~~~~~~~~~~~~~~~~~~~~~~~~~~~~~~~~~~~~~~~~~~~~~~~~~~~~~~~~~~~~~~~~~~~~~~~~~~~~~~~~~

Torrenting.com is a safe and virus free torrent site with SUPER FAST DOWNLOAD SPEED ! ! !

~~~~~~~~~~~~~~~~~~~~~~~~~~~~~~~~~~~~~~~~~~~~~~~~~~~~~~~~~~~~~~~~~~~~~~~~~~~~~~~~~~~
.
.[img]http://lookpic.com/cdn/i2/s/07112024035000-001.jpg[/img]
[img]http://lookpic.com/cdn/i2/s/07112024035000-002.jpg[/img]
[img]http://lookpic.com/cdn/i2/s/07112024035000-003.jpg[/img]

General
Unique ID                                : 240470074655026858238300221609168715105 (0xB4E8DA0C55B96967922CD332B59DBD61)
Complete name                            : SAS Red Notice 2021 720p WEB h264-iNTENSO.mkv
Format                                   : Matroska
Format version                           : Version 4
File size                                : 3.85 GiB
Duration                                 : 2 h 4 min
Overall bit rate                         : 4 441 kb/s
Frame rate                               : 23.976 FPS
Encoded date                             : 2021-04-23 10:52:05 UTC
Writing application                      : mkvmerge v8.2.0 ('World of Adventure') 64bit
Writing library                          : libebml v1.3.1 + libmatroska v1.4.2

Video
ID                                       : 1
Format                                   : AVC
Format/Info                              : Advanced Video Codec
Format profile                           : [email protected]
Format settings                          : 2 Ref Frames
Format settings, CABAC                   : No
Format settings, Reference frames        : 2 frames
Format settings, Slice count             : 8 slices per frame
Codec ID                                 : V_MPEG4/ISO/AVC
Duration                                 : 2 h 4 min
Bit rate                                 : 3 969 kb/s
Width                                    : 1 280 pixels
Height                                   : 532 pixels
Display aspect ratio                     : 2.40:1
Frame rate mode                          : Constant
Frame rate                               : 23.976 (24000/1001) FPS
Color space                              : YUV
Chroma subsampling                       : 4:2:0
Bit depth                                : 8 bits
Scan type                                : Progressive
Bits/(Pixel*Frame)                       : 0.243
Stream size                              : 3.44 GiB (89%)
Language                                 : English
Default                                  : Yes
Forced                                   : No
Color range                              : Limited
Color primaries                          : BT.709
Transfer characteristics                 : BT.709
Matrix coefficients                      : BT.709

Audio
ID                                       : 2
Format                                   : AC-3
Format/Info                              : Audio Coding 3
Commercial name                          : Dolby Digital
Codec ID                                 : A_AC3
Duration                                 : 2 h 4 min
Bit rate mode                            : Constant
Bit rate                                 : 384 kb/s
Channel(s)                               : 6 channels
Channel layout                           : L R C LFE Ls Rs
Sampling rate                            : 48.0 kHz
Frame rate                               : 31.250 FPS (1536 SPF)
Compression mode                         : Lossy
Stream size                              : 341 MiB (9%)
Language                                 : English
Service kind                             : Complete Main
Default                                  : Yes
Forced                                   : No

Text #1
ID                                       : 3
Format                                   : UTF-8
Codec ID                                 : S_TEXT/UTF8
Codec ID/Info                            : UTF-8 Plain Text
Language                                 : German
Default                                  : No
Forced                                   : No

Text #2
ID                                       : 4
Format                                   : UTF-8
Codec ID                                 : S_TEXT/UTF8
Codec ID/Info                            : UTF-8 Plain Text
Language                                 : German
Default                                  : No
Forced                                   : No

Menu
00:00:00.000                             : en:1
00:06:55.540                             : en:2
00:18:21.058                             : en:3
00:30:30.996                             : en:4
00:39:43.590                             : en:5
00:50:10.508                             : en:6
01:00:45.392                             : en:7
01:11:57.731                             : en:8
01:21:56.913                             : en:9
01:34:29.165                             : en:10
01:49:21.932                             : en:11
01:58:24.849                             : en:12

SAS Red Notice 2021 720p WEB h264-iNTENSO.jpg344.96 KiB
SAS Red Notice 2021 720p WEB h264-iNTENSO.mkv3.85 GiB
SAS Red Notice 2021 720p WEB h264-iNTENSO.mkv.nfo4.74 KiB
Torrent Downloaded From Torrenting.com.txt84 B